Thread Rating:
  • 0 Vote(s) - 0 Average
  • 1
  • 2
  • 3
  • 4
  • 5

[-]
Tags
1984 bluray avc 1080p hd ma 2 remux dts

 
  1984 (1984) Bluray Remux 1080p AVC DTS-HD MA 2.0
#1
1984 (1984) Bluray Remux 1080p AVC DTS-HD MA 2.0

[Image: tt0087803.jpg]

[Image: imdb.png]
https://www.imdb.com/title/tt0087803/

[Image: info.png]
Nineteen Eighty-Four 1984 EN.mkv
Format                      : Matroska
Format version              : Version 4 / Version 2
File size                   : 25.3 GiB
Duration                    : 1 h 50 min
Overall bit rate mode       : Variable
Overall bit rate            : 32.8 Mb/s
Movie name                  : Nineteen Eighty-Four
Encoded date                : UTC 2016-11-04 13:01:38
Writing application         : mkvmerge v9.5.0 ('Quiet Fire') 64bit
Writing library             : libebml v1.3.4 + libmatroska v1.4.5

Video
ID                          : 1
Format                      : AVC
Format/Info                 : Advanced Video Codec
Format profile              : [email protected]
Format settings, CABAC      : Yes
Format settings, ReFrames   : 2 frames
Codec ID                    : V_MPEG4/ISO/AVC
Duration                    : 1 h 50 min
Bit rate mode               : Variable
Bit rate                    : 31.8 Mb/s
Width                       : 1 920 pixels
Height                      : 1 080 pixels
Display aspect ratio        : 16:9
Frame rate mode             : Constant
Frame rate                  : 23.976 (24000/1001) FPS
Color space                 : YUV
Chroma subsampling          : 4:2:0
Bit depth                   : 8 bits
Scan type                   : Progressive
Bits/(Pixel*Frame)          : 0.640
Stream size                 : 24.6 GiB (97%)
Title                       : Nineteen Eighty-Four
Language                    : English
Default                     : Yes
Forced                      : No

Audio
ID                          : 2
Format                      : DTS
Format/Info                 : Digital Theater Systems
Format profile              : MA / Core
Mode                        : 16
Format settings, Endianness : Big
Codec ID                    : A_DTS
Duration                    : 1 h 50 min
Bit rate mode               : Variable / Constant
Bit rate                    : 929 kb/s / 768 kb/s
Channel(s)                  : 1 channel
Channel positions           : Front: C
Sampling rate               : 48.0 kHz
Frame rate                  : 93.750 FPS (512 spf)
Bit depth                   : 24 bits
Compression mode            : Lossless / Lossy
Stream size                 : 734 MiB (3%)
Title                       : English
Language                    : English
Default                     : Yes
Forced                      : No

Text #1
ID                          : 3
Format                      : PGS
Muxing mode                 : zlib
Codec ID                    : S_HDMV/PGS
Codec ID/Info               : Picture based subtitle format used on BDs/HD-DVDs
Duration                    : 1 h 50 min
Bit rate                    : 13.1 kb/s
Count of elements           : 3034
Stream size                 : 10.3 MiB (0%)
Title                       : English SDH
Language                    : English
Default                     : No
Forced                      : No

Text #2
ID                          : 4
Format                      : PGS
Muxing mode                 : zlib
Codec ID                    : S_HDMV/PGS
Codec ID/Info               : Picture based subtitle format used on BDs/HD-DVDs
Duration                    : 1 h 46 min
Bit rate                    : 13.1 kb/s
Count of elements           : 2148
Stream size                 : 10.0 MiB (0%)
Title                       : Turkish
Language                    : Turkish
Default                     : Yes
Forced                      : No

[Image: vlcsnap-error417-jpg-c22cf2ff52281e3eff1...ea53e7.jpg]

[Image: vlcsnap-error625-jpg-ac9c34431443bcbaae1...8edcae.jpg]

[Image: tdown.png]

For Only Vip Members

1984 (1984) Bluray Remux 1080p AVC DTS-HD MA 2.0 VIP
Reply


Possibly Related Threads…
Thread Author Replies Views Last Post
  This Is My Country 1984 1080p BluRay REMUX AVC FLAC 2 0-TRiToN KAiJu 0 3 12-02-2021, 07:28 AM
Last Post: KAiJu
  Whale Hunting 1984 1080p Blu-ray Remux AVC LPCM 1 0-HDT KAiJu 1 62 10-19-2021, 09:46 PM
Last Post: dkrmrmwk
  Once Upon a Time in America (1984) Bluray REMUX 1080p AVC DTS-HD MA 5.1-HUS AbrA 0 47 10-14-2021, 12:45 PM
Last Post: AbrA
  Runaway 1984 1080p BluRay REMUX AVC FLAC 2 0-TRiToN KAiJu 0 41 09-06-2021, 02:57 PM
Last Post: KAiJu
  Blood Simple 1984 Criterion Collection 1080p Remux AVC DTS-HD MA 5.1-playBD KAiJu 0 64 08-20-2021, 07:10 PM
Last Post: KAiJu

Forum Jump:


Users browsing this thread: 1 Guest(s)

Powered By MyBB
RSS RSS Syndication
Updated By iAndrew | 2021