Thread Rating:
  • 0 Vote(s) - 0 Average
  • 1
  • 2
  • 3
  • 4
  • 5

[-]
Tags
1957 bluray angry avc 1080p dd2 en 12 remux men tr

 
  12 Angry Men (1957) Bluray Remux 1080p TR-EN AVC DD2.0
#1
12 Angry Men (1957) Bluray Remux 1080p TR-EN AVC DD2.0

[Image: tt0050083.jpg]

[Image: imdb.png]
https://www.imdb.com/title/tt0050083/

[Image: info.png]
12 Angry Men 1957 TR EN.mkv
Format                      : Matroska
Format version              : Version 2
File size                   : 9.71 GiB
Duration                    : 1 h 36 min
Overall bit rate            : 14.4 Mb/s
Movie name                  : www.HDMekani.com
Encoded date                : UTC 2012-08-26 16:31:47
Writing application         : mkvmerge v3.2.0 ('Beginnings') built on Feb 12 2010 16:46:17
Writing library             : libebml v0.7.9 + libmatroska v0.8.1

Video
ID                          : 1
Format                      : AVC
Format/Info                 : Advanced Video Codec
Format profile              : [email protected]
Format settings, CABAC      : Yes
Format settings, ReFrames   : 4 frames
Codec ID                    : V_MPEG4/ISO/AVC
Duration                    : 1 h 36 min
Bit rate                    : 13.7 Mb/s
Width                       : 1 802 pixels
Height                      : 1 080 pixels
Display aspect ratio        : 5:3
Frame rate mode             : Constant
Frame rate                  : 23.976 FPS
Color space                 : YUV
Chroma subsampling          : 4:2:0
Bit depth                   : 8 bits
Scan type                   : Progressive
Bits/(Pixel*Frame)          : 0.293
Stream size                 : 9.00 GiB (93%)
Writing library             : x264 core 116 r2074 2641b9e
Encoding settings           : cabac=1 / ref=4 / deblock=1:-3:-3 / analyse=0x3:0x113 / me=umh / subme=11 / psy=1 / psy_rd=1.00:0.05 / mixed_ref=1 / me_range=48 / chroma_me=1 / trellis=2 / 8x8dct=1 / cqm=0 / deadzone=21,11 / fast_pskip=0 / chroma_qp_offset=-2 / threads=12 / sliced_threads=0 / nr=0 / decimate=1 / interlaced=0 / bluray_compat=0 / constrained_intra=0 / bframes=6 / b_pyramid=2 / b_adapt=2 / b_bias=0 / direct=3 / weightb=1 / open_gop=0 / weightp=2 / keyint=250 / keyint_min=23 / scenecut=40 / intra_refresh=0 / rc_lookahead=60 / rc=2pass / mbtree=1 / bitrate=13661 / ratetol=1.0 / qcomp=0.70 / qpmin=0 / qpmax=69 / qpstep=4 / cplxblur=20.0 / qblur=0.5 / vbv_maxrate=40000 / vbv_bufsize=30000 / nal_hrd=none / ip_ratio=1.40 / aq=2:0.90
Language                    : English
Default                     : No
Forced                      : No

Audio #1
ID                          : 2
Format                      : AC-3
Format/Info                 : Audio Coding 3
Format settings, Endianness : Big
Codec ID                    : A_AC3
Duration                    : 1 h 36 min
Bit rate mode               : Constant
Bit rate                    : 128 kb/s
Channel(s)                  : 2 channels
Channel positions           : Front: L R
Sampling rate               : 48.0 kHz
Frame rate                  : 31.250 FPS (1536 spf)
Bit depth                   : 16 bits
Compression mode            : Lossy
Stream size                 : 88.2 MiB (1%)
Title                       : HDM TV AUDIO
Language                    : Turkish
Service kind                : Complete Main
Default                     : Yes
Forced                      : No

Audio #2
ID                          : 3
Format                      : AC-3
Format/Info                 : Audio Coding 3
Format settings, Endianness : Big
Codec ID                    : A_AC3
Duration                    : 1 h 36 min
Bit rate mode               : Constant
Bit rate                    : 640 kb/s
Channel(s)                  : 1 channel
Channel positions           : Front: C
Sampling rate               : 48.0 kHz
Frame rate                  : 31.250 FPS (1536 spf)
Bit depth                   : 16 bits
Compression mode            : Lossy
Stream size                 : 441 MiB (4%)
Title                       : HDM
Language                    : English
Service kind                : Complete Main
Default                     : No
Forced                      : No

Text #1
ID                          : 4
Format                      : UTF-8
Codec ID                    : S_TEXT/UTF8
Codec ID/Info               : UTF-8 Plain Text
Title                       : HDM
Language                    : Turkish
Default                     : Yes
Forced                      : No

Text #2
ID                          : 5
Format                      : UTF-8
Codec ID                    : S_TEXT/UTF8
Codec ID/Info               : UTF-8 Plain Text
Title                       : HDM
Language                    : English
Default                     : No
Forced                      : No

[Image: vlcsnap-error158-jpg-a240b664afe35872b62...05bc3e.jpg]

[Image: vlcsnap-error432-jpg-a4a81bfe6f924619ea8...4ed7fa.jpg]

[Image: tdown.png]

For Only Vip Members

12 Angry Men (1957) Bluray Remux 1080p TR-EN AVC DD2.0 VIP
Reply


Possibly Related Threads…
Thread Author Replies Views Last Post
  The Black Scorpion 1957 1080p BluRay REMUX AVC FLAC 2 0-EPSiLON KAiJu 0 46 04-28-2022, 08:23 AM
Last Post: KAiJu
  The Deadly Mantis 1957 1080p Blu-ray Remux AVC FLAC 2.0 - KRaLiMaRKo KAiJu 0 37 04-06-2022, 11:39 AM
Last Post: KAiJu
  The Living Idol 1957 1080p Blu-ray Remux AVC DTS-HD MA 2 0-HDT KAiJu 0 61 11-26-2021, 06:37 AM
Last Post: KAiJu
  The Ride Back 1957 1080p Blu-ray Remux AVC LPCM 2 0-HDT KAiJu 0 129 10-03-2021, 08:38 AM
Last Post: KAiJu
  The Brothers Rico 1957 1080p Blu-ray Remux AVC FLAC 1.0 - KRaLiMaRKo KAiJu 0 111 10-03-2021, 08:23 AM
Last Post: KAiJu

Forum Jump:


Users browsing this thread: 1 Guest(s)

Powered By MyBB
RSS RSS Syndication
Updated By iAndrew | 2022